<?xml version="1.0" standalone="no"?> <!DOCTYPE svg PUBLIC "-//W3C//DTD SVG 1.0//EN" "http://www.w3.org/TR/2001/REC-SVG-20010904/DTD/svg10.dtd" > <svg xmlns="http://www.w3.org/2000/svg" width="100%" height="100%">
<defs >
<font id="MathJax_SansSerif-Bold" horiz-adv-x="443" ><font-face
    font-family="MathJax_SansSerif"
    units-per-em="1000"
    panose-1="0 0 8 0 0 0 0 0 0 0"
    ascent="1018"
    descent="-451"
    alphabetic="0" />
<missing-glyph horiz-adv-x="250" d="M50 0V533H200V0H50ZM100 50H150V483H100V50Z" />
<glyph unicode=" " glyph-name="space" horiz-adv-x="250" />
<glyph unicode="!" glyph-name="exclam" horiz-adv-x="367" d="M111 669Q111 680 111 682T113 689T121 693T137 694H184H249Q255 686 256 681Q244 220 239 213Q236 208 229 208T183 207T137 207T127 213T118 431T111 669ZM110 71V95Q110 137 136 144Q140 146 183
146H200Q246 146 254 121Q256 115 256 73V51Q256 9 230 2Q225 0 181 0L138 1Q121 7 113 21L111 28L110 71Z" />
<glyph unicode="&quot;" glyph-name="quotedbl" horiz-adv-x="558" d="M38 687Q42 693 45 693Q46 694 111 694H176Q179 690 183 687V556L144 501Q139 494 134 486T126 474T120 465T114 457T110 451T106 447T102 445T98 443T94 443T89 442H73H62Q37 442 37 453Q37
458 55 501T74 546Q74 548 59 548L44 549L38 555V687ZM275 687Q279 693 282 693Q283 694 348 694H413Q416 690 420 687V556L381 501Q376 494 371 486T363 474T357 465T351 457T347 451T343 447T339 445T335 443T331 443T326 442H310H299Q274 442 274 453Q274 458
292 501T311 546Q311 548 296 548L281 549L275 555V687Z" />
<glyph unicode="#" glyph-name="numbersign" horiz-adv-x="917" d="M61 365Q61 370 62 375T65 383T69 390T74 395T80 399T85 403T90 406L94 407H344L381 536Q418 668 426 680Q431 687 445 692Q451 694 457 694Q477 694 488 682T500 651Q500 645 466 528T431 409Q431
407 504 407H577L609 521Q651 668 656 675Q669 693 691 693Q710 693 721 680T733 651Q733 645 699 528T664 409Q664 407 743 407H823L827 405Q831 403 834 402T841 397T848 389T853 379T855 365Q855 337 823 324L731 323H639L619 253Q599 181 598 180V177H823L827
175Q831 173 834 172T841 167T848 159T853 149T855 135Q855 107 823 94L698 93H573L540 -21Q498 -168 493 -175Q480 -193 458 -193Q439 -193 428 -180T416 -151Q416 -144 450 -27T485 91Q485 93 412 93H340L307 -21Q265 -168 260 -175Q247 -193 225 -193Q206 -193
195 -180T183 -151Q183 -144 217 -27T252 91Q252 93 173 93L94 94Q61 105 61 135Q61 140 62 145T65 153T69 160T74 165T80 169T85 173T90 176L94 177H185L277 178L297 248L318 320V323H206L94 324Q61 335 61 365ZM551 320V323H479Q406 323 405 322Q404 319 385
249T365 178T438 177L510 178L530 248L551 320Z" />
<glyph unicode="$" glyph-name="dollar" horiz-adv-x="550" d="M231 712L232 716Q232 719 232 722T234 729T239 736T246 743T256 748T271 750Q318 750 318 711V703Q393 692 451 656Q469 645 470 640Q470 635 461 587L453 537Q445 529 442 529Q438 529 424 540T384
565T330 585Q328 585 325 585T320 586L318 587V434Q322 433 333 429T350 424T365 418T382 409T399 397T419 380Q488 313 488 213Q488 24 334 -5L318 -8V-17Q318 -56 279 -56H272Q253 -56 243 -46T232 -30T231 -18V-8H224Q170 2 127 20T68 50T49 67Q49 71 58 122T68
176Q71 182 79 182Q83 182 98 169T145 138T216 110Q228 108 229 108H231V288Q167 299 114 356T61 496Q61 537 70 570T94 624T126 661T162 684T195 696T219 701L228 702H231V712ZM231 521Q231 583 230 583Q226 582 220 579T204 561T193 521Q193 491 212 472Q226
458 230 458Q231 458 231 521ZM318 112Q356 131 356 187Q356 237 318 263V112Z" />
<glyph unicode="%" glyph-name="percent" horiz-adv-x="1029" d="M61 549Q61 733 218 749Q220 749 228 749T241 750Q286 750 321 735T369 708T389 683Q422 634 422 548V538Q422 519 420 501T408 453T381 401T328 364T243 347Q61 347 61 549ZM292 549Q292 663 242
663Q221 663 211 648T198 615T196 566V548Q196 471 206 454Q218 434 242 434Q292 434 292 549ZM243 -55Q223 -55 212 -42T201 -13Q201 -2 207 7Q209 11 480 371T758 738Q770 750 788 750Q805 750 817 738T830 709Q830 694 820 681L544 315Q273 -43 269 -47Q258
-55 243 -55ZM606 146Q606 330 763 346Q764 346 773 346T786 347Q831 347 866 332T914 305T934 280Q966 233 966 146V135Q966 115 964 97T952 49T925 -2T872 -40T788 -56Q606 -56 606 146ZM742 146V132Q742 107 743 93T748 62T762 39T787 31Q819 31 832 79Q837
97 837 146Q837 260 787 260Q767 260 757 246T744 214T742 169V146Z" />
<glyph unicode="&amp;" glyph-name="ampersand" horiz-adv-x="831" d="M757 117Q762 117 769 110V3Q759 -7 718 -14T641 -22T571 -15T518 1T477 19T453 31L437 23Q350 -19 257 -22Q158 -22 103 30T47 155Q47 188 57 216T87 263T119 292T151 313L182 333L187 336L181
349Q150 431 150 506Q150 605 211 660T347 716Q417 716 471 668T526 543Q526 517 518 495T471 432T360 343L342 330Q342 327 358 306T402 250T458 189L467 181Q518 225 556 289T607 395L620 437Q622 443 630 443Q631 443 679 430Q718 420 725 418T733 409Q733 402
722 365T670 255T573 123Q562 111 563 111Q589 94 644 94Q678 94 703 100T740 111T757 117ZM397 544Q397 573 384 601T346 629Q320 629 299 607T277 538Q277 484 295 429Q301 413 301 412Q302 409 309 415Q397 476 397 544ZM227 258Q197 228 197 177Q197 150 207
126T234 95Q242 93 251 93Q288 93 337 107L349 110L328 131Q266 196 234 248L227 258Z" />
<glyph unicode="&apos;" glyph-name="quotesingle" horiz-adv-x="306" d="M81 687Q85 693 88 693Q89 694 154 694H219Q222 690 226 687V556L187 501Q182 494 177 486T169 474T163 465T157 457T153 451T149 447T145 445T141 443T137 443T132 442H116H105Q80 442
80 453Q80 458 98 501T117 546Q117 548 102 548L87 549L81 555V687Z" />
<glyph unicode="(" glyph-name="parenleft" horiz-adv-x="428" d="M79 250Q79 352 100 441T152 585T213 678T266 733L287 749Q288 750 324 750H359Q366 741 366 738Q366 734 356 721T329 682T296 623T262 531T238 407Q230 346 230 250Q230 142 244 55T278 -82T318
-165T352 -215T366 -238Q366 -242 359 -249H286L277 -242Q79 -74 79 250Z" />
<glyph unicode=")" glyph-name="parenright" horiz-adv-x="428" d="M61 737Q61 750 85 750H106H141L150 742Q348 574 348 250T150 -242L141 -249L106 -250H87Q61 -250 61 -238Q61 -233 74 -216Q157 -113 183 51Q197 130 197 250T183 449Q174 505 158 554T126 634T95
687T71 722T61 737Z" />
<glyph unicode="*" glyph-name="asterisk" horiz-adv-x="550" d="M241 579Q241 582 228 639T215 702Q215 722 233 736T271 750Q296 750 315 736T334 702V697Q334 693 328 664T314 607L308 579L352 620Q389 654 397 660T417 668Q447 668 464 647T482 602Q482 591
479 583T472 569T459 559T443 552T421 546T397 538L342 521L397 504Q405 501 420 497T442 490T458 483T472 473T479 460T482 440Q482 416 465 395T417 374Q406 375 398 381T352 422L308 463L314 435Q321 407 327 378T334 345Q336 333 327 319T296 295Q288 293 275
293Q241 293 227 311T215 345Q215 349 221 378T234 435L241 463L197 422Q160 388 152 382T132 374Q102 374 85 395T67 440Q67 451 70 459T77 473T90 483T106 490T128 496T152 504L207 521L152 538Q144 541 129 545T107 552T91 559T77 569T70 582T67 602Q67 626
84 647T132 668Q143 667 151 661T197 620L241 579Z" />
<glyph unicode="+" glyph-name="plus" horiz-adv-x="856" d="M61 250Q61 276 94 292H386V436V535Q386 577 388 589T401 607Q411 617 427 617Q458 617 468 587Q470 581 470 436V292H762L766 290Q770 288 773 287T780 282T787 274T792 264T794 250Q794 222 762 209L616
208H470V64Q470 -81 468 -87Q458 -116 428 -116T388 -87Q386 -81 386 64V208H240L94 209Q61 220 61 250Z" />
<glyph unicode="," glyph-name="comma" horiz-adv-x="306" d="M81 139Q85 145 88 145Q89 146 154 146H219Q222 142 226 139V8L187 -47Q182 -54 177 -62T169 -74T163 -83T157 -91T153 -97T149 -101T145 -103T141 -105T137 -105T132 -106H116H105Q80 -106 80 -95Q80
-90 98 -47T117 -2Q117 0 102 0L87 1L81 7V139Z" />
<glyph unicode="-" glyph-name="hyphen" horiz-adv-x="367" d="M12 230Q12 257 26 265T80 274Q88 274 114 274T158 273T201 273T235 274Q276 274 290 266T305 230T291 194T235 185Q226 185 201 185T159 186Q143 186 119 186T85 185Q43 185 28 193T12 230Z" />
<glyph unicode="." glyph-name="period" horiz-adv-x="306" d="M219 146Q222 142 226 139V7L222 4L219 1L154 0Q102 0 94 0T82 6Q80 9 80 74L81 139Q85 145 88 145Q89 146 154 146H219Z" />
<glyph unicode="/" glyph-name="slash" horiz-adv-x="550" d="M103 -249Q81 -249 71 -235T61 -207Q61 -201 62 -198Q64 -192 235 265T409 727Q418 750 445 750Q464 750 476 737T488 707Q488 701 313 234Q143 -225 137 -232Q126 -249 103 -249Z" />
<glyph unicode="0" glyph-name="zero" horiz-adv-x="550" d="M274 -22Q227 -22 190 -9T128 24T87 76T62 135T49 204T44 271T43 336V343V362Q43 407 45 440T56 524T86 613T141 677Q197 715 264 715Q314 715 353 702T418 669T460 616T487 555T500 483T505 413T506
343Q506 310 506 293T503 241T498 185T486 133T467 83T437 42T397 8T343 -13T274 -22ZM355 355V401Q355 448 354 476T349 537T336 587T311 617T272 629Q270 629 266 629T261 628Q219 618 207 568T194 419V355Q194 203 200 156T231 85Q250 66 275 66Q299 66 318
85Q342 109 348 156T355 355Z" />
<glyph unicode="1" glyph-name="one" horiz-adv-x="550" d="M118 560H116Q107 560 100 561T85 572T76 600Q76 612 77 618T83 632T99 644Q102 645 135 646T207 660T275 700Q292 716 310 716Q353 716 360 691Q362 685 362 386V87H446Q464 76 468 69T473 44Q473 12
446 1H118Q105 7 100 13T94 25T93 44V62Q100 79 119 87H210V329Q210 571 208 571Q182 560 118 560Z" />
<glyph unicode="2" glyph-name="two" horiz-adv-x="550" d="M339 477Q339 505 332 531T301 579T242 601Q165 601 136 503Q133 493 130 490T121 486Q116 486 94 514Q86 523 82 528Q46 572 46 577Q46 591 77 632T147 691Q192 716 257 716Q305 716 351 700Q416 674
455 615T494 481Q494 421 463 376T356 266Q326 240 287 205T224 146T199 122H331Q359 122 392 122T431 123H445Q485 123 492 98Q494 92 494 62V47Q494 9 468 2Q463 0 272 0L83 1Q63 7 56 28L55 57V89Q59 97 215 261Q255 303 275 327T317 394T339 477Z" />
<glyph unicode="3" glyph-name="three" horiz-adv-x="550" d="M61 624Q62 630 83 650T153 693T262 716Q328 716 373 698T438 650T465 593T473 536Q473 438 375 376L387 371Q450 350 476 305T503 208Q503 164 492 126T456 53T380 -2T261 -22Q224 -22 189 -15T130
2T86 24T57 43T46 53Q46 56 53 99T62 145Q65 152 71 152Q76 152 90 143T123 121T175 99T248 87Q302 87 321 113T341 202Q341 264 329 292T279 329L232 331L190 332L184 338V411Q190 417 192 417Q193 418 205 419T232 421T252 424Q280 430 299 461T318 539V551Q318
599 283 609Q276 611 257 611Q225 611 199 601T159 577T136 554T120 543T102 560T76 597T62 618T61 624Z" />
<glyph unicode="4" glyph-name="four" horiz-adv-x="550" d="M278 693H282Q285 693 291 693T305 694T322 694T342 694H377Q402 694 411 691T430 677Q434 670 434 646T435 456V249H461H472Q509 249 516 224Q518 219 518 194Q518 178 518 171T511 155T492 142Q488
140 461 140H435V86V53Q435 9 409 2Q405 0 366 0H351Q306 0 298 25Q296 31 296 86V140H179H123Q99 140 80 129T50 106T37 95Q31 95 31 163V208Q31 246 33 251Q251 673 262 684Q268 691 278 693ZM302 249V416L301 576Q301 536 165 276L151 250L226 249H302Z" />
<glyph unicode="5" glyph-name="five" horiz-adv-x="550" d="M109 282Q87 290 83 310V666Q83 667 84 670T87 676T91 682T98 688T108 693Q112 694 269 694T431 692Q457 686 457 648V637V624Q457 588 431 581Q426 579 326 579H227V510Q227 442 229 442Q243 450 288
450Q377 450 435 399T494 222Q494 -22 241 -22Q202 -22 167 -11T109 16T69 49T45 79T37 94T69 151Q91 185 97 185Q105 185 112 170Q127 135 160 111T240 87Q266 87 284 94T311 111T325 142T331 179T332 226Q332 307 324 335T281 363Q228 363 197 306Q189 289 172
282H109Z" />
<glyph unicode="6" glyph-name="six" horiz-adv-x="550" d="M414 589Q410 589 389 600T334 612Q275 612 243 575Q209 538 202 433V422L209 431Q243 487 317 487Q392 487 440 442Q478 402 490 357T503 236Q503 113 454 54Q421 13 381 -4T279 -22Q263 -22 250 -21T214
-15T173 1T133 30T96 77T68 146T50 242Q46 278 46 336Q46 406 52 447Q84 698 312 715L315 716Q318 716 321 716Q323 716 328 716T337 715Q398 715 425 688V596Q419 591 414 589ZM282 87Q324 89 336 117T348 231Q348 310 343 343T324 388T277 399Q249 399 231 373T208
317T202 253Q202 201 207 168T224 117T249 93T282 87Z" />
<glyph unicode="7" glyph-name="seven" horiz-adv-x="550" d="M135 38Q135 190 198 335T353 572H215Q185 572 151 572T110 571H96Q55 571 48 596Q46 602 46 633V648Q46 686 72 693Q76 695 124 695Q134 695 183 695T274 694Q472 694 477 692Q503 686 503 648V637Q503
612 502 605T491 588Q300 349 292 46V36Q292 -4 266 -9Q262 -11 214 -11H192Q160 -11 148 -3T135 38Z" />
<glyph unicode="8" glyph-name="eight" horiz-adv-x="550" d="M61 518Q61 574 79 614T128 676T192 706T263 715H270Q298 715 318 714T373 701T430 671T470 612T488 517Q488 459 458 423T390 376Q388 375 393 373Q395 372 398 371Q503 330 503 204Q503 -22 275
-22Q209 -22 163 -3T92 49T57 120T46 204Q46 230 50 252T61 289T77 318T96 339T116 353T134 363T148 369T158 373T160 376Q118 389 90 424T61 518ZM344 538Q344 563 340 578T326 600T307 609T279 612Q232 612 218 594T204 518Q204 459 216 439T275 418Q328 418
338 450Q344 464 344 515V538ZM248 88T274 88T315 94T338 117T346 149T349 197Q349 269 342 290Q338 309 320 320T274 331Q246 331 229 320T207 290Q200 269 200 197Q201 163 202 149T210 118T232 94Z" />
<glyph unicode="9" glyph-name="nine" horiz-adv-x="550" d="M347 272Q346 272 342 266T330 250T309 230T276 214T230 207Q185 207 150 223Q116 240 90 276T54 357Q46 393 46 468Q46 469 46 484T47 502T48 520T51 540T55 559T61 579T69 599T81 620T96 640T115
661Q174 716 276 716Q299 716 317 714T369 698T426 658T471 580T499 456Q503 402 503 342Q503 115 392 29Q322 -22 231 -22Q163 -22 115 7L82 31Q76 38 81 46Q116 112 127 123Q130 126 134 126T148 116T179 97T226 87Q287 87 318 132Q323 139 326 146T332 165T337
182T340 204T342 225T345 249T347 272ZM201 547T201 454T211 329T262 294Q276 294 285 296T310 312T335 355Q347 391 347 447Q347 520 340 550T317 595Q300 612 277 612Q226 612 214 580Z" />
<glyph unicode=":" glyph-name="colon" horiz-adv-x="306" d="M226 319L219 313H87L81 319L80 384Q80 437 80 445T86 456Q89 458 154 458H219Q222 454 226 451V319ZM219 146Q222 142 226 139V7L222 4L219 1L154 0Q102 0 94 0T82 6Q80 9 80 74L81 139Q85 145 88
145Q89 146 154 146H219Z" />
<glyph unicode=";" glyph-name="semicolon" horiz-adv-x="306" d="M226 319L219 313H87L81 319L80 384Q80 437 80 445T86 456Q89 458 154 458H219Q222 454 226 451V319ZM81 139Q85 145 88 145Q89 146 154 146H219Q222 142 226 139V8L187 -47Q182 -54 177 -62T169
-74T163 -83T157 -91T153 -97T149 -101T145 -103T141 -105T137 -105T132 -106H116H105Q80 -106 80 -95Q80 -90 98 -47T117 -2Q117 0 102 0L87 1L81 7V139Z" />
<glyph unicode="=" glyph-name="equal" horiz-adv-x="856" d="M94 324Q61 335 61 366Q61 396 91 405Q96 407 429 407H762Q763 406 767 404T774 400T781 395T787 387T792 378T794 365Q794 338 762 324H94ZM94 94Q61 105 61 135Q61 149 69 160T92 175Q97 177 430
177H762L766 175Q770 173 773 172T780 167T787 159T792 149T794 135Q794 107 762 94H94Z" />
<glyph unicode="?" glyph-name="question" horiz-adv-x="519" d="M61 644Q61 652 87 666T157 693T244 705Q344 705 400 671T457 551Q457 516 446 490T422 451T387 421T356 391Q330 361 318 332T305 292T303 252Q303 218 300 213T290 208T244 207H220Q194 207 188
213Q187 214 186 215V255Q187 282 188 296T198 345T229 417T288 496Q306 515 306 559Q306 596 296 607T253 618Q214 618 185 607T143 583T120 558T103 547Q99 547 95 551Q93 553 77 597T61 644ZM171 71V95Q171 137 197 144Q201 146 244 146H261Q307 146 315 121Q317
115 317 73V51Q317 9 291 2Q286 0 242 0L199 1Q182 7 174 21L172 28L171 71Z" />
<glyph unicode="@" glyph-name="at" horiz-adv-x="733" d="M61 264T61 347T82 494T136 596T217 660T311 694T410 704Q460 704 471 703Q534 694 577 666Q633 623 651 552T670 370V342Q670 249 633 195Q583 116 454 116Q238 116 238 347Q238 443 276 499Q328 578
456 578Q488 578 494 577L504 575Q475 617 430 617H421Q196 617 196 347Q196 215 253 143Q310 76 427 76Q499 76 561 102L575 107H664Q671 97 671 94V89L663 81Q566 -11 422 -11Q365 -11 316 -2T219 33T137 97T82 200ZM469 490Q459 492 453 492Q429 492 405 472Q374
439 374 347Q374 233 423 210Q436 202 454 202L486 210Q536 228 536 347Q536 461 486 484Q476 490 469 490Z" />
<glyph unicode="A" glyph-name="A" horiz-adv-x="733" d="M110 0H86Q42 0 42 27Q42 37 148 350T258 667Q269 687 291 692Q295 694 366 694H399Q432 694 448 689T474 667Q477 663 583 350T690 27Q690 0 642 0H617H592Q582 0 575 1T561 2T549 6T541 11T533 18T527
26T522 37T517 49T512 64T506 81L490 130H225Q225 128 208 79T189 27Q185 19 180 14T170 7T156 3T143 1T127 0T110 0ZM439 279Q359 524 359 547L357 555L355 543Q347 503 270 263L259 231H357Q455 231 455 232L439 279Z" />
<glyph unicode="B" glyph-name="B" horiz-adv-x="733" d="M119 1Q98 5 92 28V667Q98 686 118 693Q121 694 272 694H289H346Q439 694 500 681T600 625Q640 580 640 513Q640 451 601 414T504 364L518 361Q568 351 602 329T649 280T666 235T671 197Q671 172 665 147T642
91T586 37T488 5Q456 1 282 1H119ZM489 509Q489 532 479 548T450 573T421 585T394 591Q387 592 315 593H247V404H298H325Q432 404 466 444Q489 470 489 509ZM517 194Q517 235 502 261T458 299T407 313T353 317H329H322H247V101H319H357Q387 101 407 103T452 111T492
133T514 171Q516 176 517 194Z" />
<glyph unicode="C" glyph-name="C" horiz-adv-x="703" d="M423 -11Q339 -11 275 9T171 62T106 143T71 240T61 347Q61 450 93 527Q157 664 313 694Q357 704 416 704Q479 704 517 699T608 676Q634 667 635 660Q635 653 624 592L612 528L609 524Q604 521 601 521Q595
521 583 531T555 555T505 578T428 589H424Q298 589 250 494Q224 438 224 347Q224 292 233 251T265 175T329 122T432 104Q488 104 524 115T604 158Q607 160 610 162T615 165T619 168L621 170Q625 172 630 170T637 163Q638 160 642 109T647 54Q646 49 625 37T568
11T499 -7Q463 -11 423 -11Z" />
<glyph unicode="D" glyph-name="D" horiz-adv-x="794" d="M119 1Q98 5 92 28V667Q98 686 118 693H124Q131 693 142 693T168 694T200 694T237 694H296Q416 694 450 692T525 677Q732 617 732 342Q732 169 644 81Q593 32 528 16T372 0Q356 0 324 0T276 1H119ZM573
349Q573 387 571 413T559 473T532 527T482 567T403 591Q395 592 320 593H250V101H321Q418 102 456 114Q553 144 569 263Q573 303 573 349Z" />
<glyph unicode="E" glyph-name="E" horiz-adv-x="642" d="M277 122Q280 122 380 123T544 125Q552 125 557 125T565 124T569 124Q595 115 595 75V62V47Q595 9 569 2Q564 0 341 0L119 1Q99 7 92 28V664Q98 683 118 690Q121 691 335 691T554 689Q580 682 580 644V632V618Q580
582 554 573Q553 573 551 573T542 572T527 572Q464 572 364 573T260 575H253V412H385H459Q524 412 536 404T549 357Q549 341 549 334T542 318T523 305Q518 303 385 303H253V122H277Z" />
<glyph unicode="F" glyph-name="F" horiz-adv-x="611" d="M512 572Q451 572 356 573T258 575H253V400H370H431Q494 400 506 392T518 345Q518 307 507 299T437 291H370H253V161Q253 141 253 113T254 75Q254 23 245 12T195 0H170L119 1Q99 7 92 28V664Q98 683 118
690Q121 691 327 691T538 689Q564 682 564 644V632V618Q564 582 538 573Q537 573 535 573T526 572T512 572Z" />
<glyph unicode="G" glyph-name="G" horiz-adv-x="733" d="M61 347Q61 405 70 454T105 550T171 631T276 685T426 705Q483 705 537 693T620 668T650 646Q650 645 649 637T645 612T639 578L627 514L624 510Q620 507 615 507T597 520T566 548T512 577T430 590Q223
590 223 347T431 104Q478 104 506 112Q508 112 508 164V215H471L434 216L428 222L427 268Q427 315 429 318Q432 323 444 323T544 324H652Q655 320 659 317V45L656 43Q654 39 624 27T536 2T424 -11Q366 -11 317 -2T219 33T137 97T82 200T61 347Z" />
<glyph unicode="H" glyph-name="H" horiz-adv-x="794" d="M92 667Q101 694 143 694H172H198Q244 694 251 669Q253 663 253 539V415H540V539Q540 558 540 585T539 621Q539 673 550 683T611 694H621H646Q671 694 683 690T700 669Q702 663 702 347T700 25Q696 9 684
5T646 0H621H606Q560 0 550 11T539 76Q539 85 539 116T540 169V306H253V169Q253 147 253 116T254 75Q254 23 245 12T194 0H170L119 1Q99 7 92 28V667Z" />
<glyph unicode="I" glyph-name="I" horiz-adv-x="331" d="M85 667Q94 694 136 694H165H191Q237 694 244 669Q246 663 246 347T244 25Q235 0 192 0H163L112 1Q92 7 85 28V667Z" />
<glyph unicode="J" glyph-name="J" horiz-adv-x="519" d="M236 -22Q190 -22 144 -11T72 12T46 29Q63 147 69 153Q80 164 92 146Q124 91 191 91Q222 91 242 102T267 134Q268 139 268 402Q268 663 270 669Q275 687 294 692Q298 694 347 694H367Q393 694 406 690T425
669Q427 663 427 399Q427 132 426 125Q421 87 404 58T366 15T318 -9T273 -20T236 -22Z" />
<glyph unicode="K" glyph-name="K" horiz-adv-x="764" d="M92 667Q101 694 139 694H163H186Q225 694 234 671Q236 663 236 529L237 392L533 682Q550 694 590 694H623H681Q695 680 695 672Q695 670 693 664Q688 657 561 533L431 405L698 33Q701 28 701 23Q701 7
683 0H626H604Q571 0 564 2T545 13Q544 14 530 33T489 90T437 162L332 307Q331 307 284 260L236 214V122V65Q236 32 231 19T210 2Q205 0 161 0L119 1Q99 7 92 28V667Z" />
<glyph unicode="L" glyph-name="L" horiz-adv-x="581" d="M92 667Q98 684 109 689T142 694H172H198Q244 694 251 669Q253 663 253 389V116L278 117Q410 119 490 119H495Q511 119 517 115T534 93V63V48Q534 9 508 2Q503 0 310 0L119 1Q99 7 92 28V667Z" />
<glyph unicode="M" glyph-name="M" horiz-adv-x="978" d="M92 667Q98 684 109 689T146 695Q152 695 167 695T192 694Q200 694 214 694T234 695Q291 695 305 664Q313 651 400 419T487 165Q487 162 488 162T489 165Q489 187 574 413T671 664Q679 680 695 688Q708
694 785 694H828Q855 694 867 689T884 669Q886 663 886 347T884 25Q876 0 832 0H817H802Q758 0 750 25Q748 31 748 293V555L746 544Q737 509 692 386T606 160T564 52Q548 22 502 22H487H472Q423 22 410 52Q407 59 367 160T283 385T231 546L230 548Q229 548 229
293Q229 31 227 25Q222 9 211 5T176 0H158L119 1Q99 7 92 28V667Z" />
<glyph unicode="N" glyph-name="N" horiz-adv-x="794" d="M92 667Q98 684 109 689T146 694H185Q273 694 279 692Q301 689 315 669Q322 660 419 453L554 163L562 143Q564 143 564 401Q564 663 566 669Q574 694 618 694H633H648Q692 694 700 669Q702 663 702 347T700
25Q696 10 683 5T642 0H596H551Q520 0 505 4T478 25Q471 34 374 241L239 532Q231 550 231 552L229 479Q229 440 229 293Q229 31 227 25Q222 9 211 5T176 0H158L119 1Q99 7 92 28V667Z" />
<glyph unicode="O" glyph-name="O" horiz-adv-x="794" d="M362 715Q364 715 376 715T394 716H400Q542 716 626 643T727 426Q731 395 731 342Q731 271 722 225Q674 -22 396 -22Q320 -22 259 -3T148 68T77 201Q62 257 62 342Q62 447 86 522T173 649Q245 707 362
715ZM568 433Q551 623 396 623Q383 623 370 622T333 612T292 591T257 550T233 485Q223 442 223 350Q223 276 232 227T267 137Q309 74 397 74Q433 74 461 85T507 113T537 156T556 205T566 260T569 310T570 357Q570 409 568 433Z" />
<glyph unicode="P" glyph-name="P" horiz-adv-x="703" d="M641 470Q641 426 630 391T603 334T561 295T513 271T459 259T408 254T361 253H350H337H253V142Q253 125 253 100T254 67Q254 32 249 19T227 2Q222 0 170 0L119 1Q99 7 92 28V667Q98 686 118 693Q121 694
271 694Q428 693 462 688Q641 656 641 470ZM487 467Q487 495 485 510T474 546T442 578T382 592Q375 593 310 593H250V347H309H339Q364 347 380 348T418 354T451 368T474 395T486 438Q487 444 487 467Z" />
<glyph unicode="Q" glyph-name="Q" horiz-adv-x="794" d="M450 -20Q444 -20 429 -21T396 -22Q320 -22 259 -3T148 68T77 201Q62 257 62 342Q62 447 86 522T173 649Q245 707 362 715Q364 715 376 715T394 716Q732 716 732 340Q732 268 719 210T686 120T647 68T615
39T601 29T638 -22T676 -73Q679 -78 679 -83Q679 -98 661 -106H593Q526 -106 521 -104Q514 -103 507 -97T496 -84T477 -55L454 -19L450 -20ZM554 509Q516 622 391 622Q294 622 250 535Q220 475 220 345Q220 299 222 266T234 198T258 140T299 99T363 74Q378 71 393
71H395L381 92Q367 114 353 136T338 161Q336 165 336 170Q336 186 352 193L361 194Q370 194 384 194T412 194H452Q457 194 460 194T466 194T471 192T476 191T480 188T483 185T487 180T492 174T497 167T504 158L526 129Q532 127 552 175Q573 231 573 348Q573 455
554 509Z" />
<glyph unicode="R" glyph-name="R" horiz-adv-x="703" d="M654 24Q654 9 644 5T612 0H577L521 1Q509 5 503 13Q498 20 421 160L343 304H250V168Q250 147 250 118T251 78Q251 24 242 12T192 0H168L119 1Q99 7 92 28V667Q98 686 118 693H124Q131 693 141 693T165
694T195 694T229 694T280 694T332 695Q389 695 428 691T510 675T582 637T627 569Q641 532 641 493Q641 377 537 331L497 317L493 316L571 177Q653 28 654 24ZM487 472T487 492T485 525T476 553T450 577T404 591Q398 592 322 593H250V391H321Q327 391 353 391T385
392T412 395T438 401T457 412T474 430T483 456Z" />
<glyph unicode="S" glyph-name="S" horiz-adv-x="611" d="M61 503Q61 547 72 583T110 650T186 698T305 716Q405 716 496 671Q513 664 514 657Q514 656 513 648T509 623T503 589L491 525L488 521Q484 518 479 518H475L461 532Q430 565 395 581T305 598Q201 598
201 523Q201 480 240 462T345 431T443 394Q549 324 549 204Q549 160 538 123T502 51T427 -2T308 -22Q180 -22 69 41Q50 52 49 57Q49 58 50 66T54 91T60 125L72 189L75 193Q80 196 84 196Q87 196 104 182T145 149T212 117T304 102Q408 102 408 188Q408 215 396 234T362
263T319 278T267 290T219 302Q149 324 105 380T61 503Z" />
<glyph unicode="T" glyph-name="T" horiz-adv-x="733" d="M67 687Q70 688 366 688Q661 688 666 686Q692 680 692 641V629V615Q692 579 666 570H660Q655 569 648 569Q645 569 624 569T581 570Q505 570 475 572H447V302Q447 31 445 25Q436 0 393 0H364L313 1Q293
7 286 28L285 300V572H257Q227 570 151 570Q130 570 109 570T84 569Q77 569 72 570H66Q48 577 44 588T40 631L41 661Q47 680 67 687Z" />
<glyph unicode="U" glyph-name="U" horiz-adv-x="764" d="M92 667Q101 694 143 694H172H200Q242 694 251 671Q253 663 253 430Q254 189 255 185Q262 134 288 107T384 79Q498 79 516 168Q520 191 521 431Q521 663 523 671Q532 694 572 694H596H618Q639 694 648
692T665 679Q671 672 671 653Q672 632 672 555V432Q671 200 670 190Q652 79 581 29T383 -22Q137 -22 98 166Q92 195 92 303V667Z" />
<glyph unicode="V" glyph-name="V" horiz-adv-x="733" d="M27 667Q27 683 39 688T75 694H101Q155 694 159 692Q182 687 194 665Q202 652 283 419T374 142Q376 165 473 445Q552 664 553 666Q568 694 618 694H639H658Q681 694 693 689T705 667Q705 660 592 347Q481
32 477 28Q466 7 441 1H292Q266 7 255 28Q251 32 140 347Q27 660 27 667Z" />
<glyph unicode="W" glyph-name="W" horiz-adv-x="1039" d="M994 694Q1012 683 1014 668Q1014 661 977 519T896 217T845 26Q831 0 783 0H747H711Q685 0 672 5T649 26Q644 36 583 272T517 548Q516 552 516 551Q503 479 437 227Q389 37 383 26Q367 0 323 0H288H254Q207
0 193 26Q191 32 108 346T24 665Q24 685 44 693Q47 694 98 694H115Q152 694 168 668Q174 657 235 417T297 144Q297 134 300 153Q307 204 362 421T427 668Q441 694 488 694H523Q586 694 597 688Q612 683 620 661T651 549Q664 496 673 462Q744 194 750 146V140Q767
223 800 354T857 576T883 668Q897 694 938 694H958H994Z" />
<glyph unicode="X" glyph-name="X" horiz-adv-x="733" d="M52 1Q37 11 37 23Q37 26 39 32Q39 34 158 202L275 369Q275 370 221 441T112 586T55 663Q53 669 53 672Q53 687 68 693H72Q77 693 84 693T99 694T118 694T139 694H176Q203 694 212 692T230 682Q231 681
239 669T265 634T296 591L358 504L418 591Q481 682 486 686Q491 691 499 692Q505 694 569 694H632Q650 685 650 672Q650 667 646 660Q643 654 592 582T491 440T441 369T566 201T693 29Q694 27 694 23Q694 11 677 0H607L537 1Q523 6 519 10T437 131Q422 153 411
170T390 200T375 222T365 237T359 245L357 247L348 232Q339 218 319 188T283 131Q222 37 211 22T186 1H52Z" />
<glyph unicode="Y" glyph-name="Y" horiz-adv-x="733" d="M635 694H668Q688 694 698 690T708 670Q708 664 704 658L446 278L445 152V27Q442 20 440 17T433 9T419 1L368 0H339Q316 0 305 5T288 26Q286 31 286 154V278L157 468Q135 500 101 550Q43 635 34 650T24
671Q24 686 39 693Q42 694 105 694H122H132Q163 694 180 689T214 666Q225 654 336 485Q373 425 373 420L374 418Q375 419 375 421Q378 432 418 493T496 609T536 667Q543 676 551 681T572 689T591 693T615 694T635 694Z" />
<glyph unicode="Z" glyph-name="Z" horiz-adv-x="672" d="M411 584Q243 581 131 581Q122 581 116 581T106 582T102 582Q84 589 80 600T76 640L77 667Q83 686 103 693Q106 694 343 694Q579 694 584 692Q592 691 599 684T609 668Q610 665 610 646Q610 614 608 608Q605
603 434 361L261 116Q340 117 402 118T490 119T533 120T560 120H572Q605 120 614 95Q616 89 616 60V46Q616 9 590 2Q585 0 339 0Q92 0 87 2Q79 3 72 10T62 26Q61 29 61 49Q61 84 63 90Q65 94 152 217T325 461T411 584Z" />
<glyph unicode="[" glyph-name="bracketleft" horiz-adv-x="343" d="M318 -206Q318 -235 305 -243T255 -251Q248 -251 229 -251T198 -250H143Q112 -250 99 -246T81 -225Q79 -219 79 250T81 725Q85 741 98 745T143 750H198Q210 750 229 750T255 751Q291 751 304
743T318 707Q318 680 301 668Q293 663 255 663H224V-163H255Q293 -163 301 -168Q318 -180 318 -206Z" />
<glyph unicode="]" glyph-name="bracketright" horiz-adv-x="343" d="M24 706Q24 734 39 742T90 751Q97 751 114 751T143 750H198Q230 750 243 746T261 725Q263 719 263 250T261 -225Q257 -241 244 -245T198 -250H143Q131 -250 112 -250T86 -251Q50 -251 37 -243T24
-207Q24 -180 41 -168Q49 -163 87 -163H118V663H87H71Q24 663 24 706Z" />
<glyph unicode="^" glyph-name="asciicircum" horiz-adv-x="550" d="M108 550Q108 554 135 589T190 658T219 692Q221 694 275 694Q328 694 330 693Q331 692 381 629T438 557Q441 553 441 549T434 538L399 537Q363 537 362 538Q361 538 318 575L275 611Q274 611
231 575Q188 538 187 538Q186 537 150 537L115 538Q108 545 108 550Z" />
<glyph unicode="_" glyph-name="underscore" horiz-adv-x="550" d="M0 -66Q0 -32 26 -25Q30 -23 274 -23Q469 -23 497 -23T532 -28Q549 -40 549 -67Q549 -93 532 -105Q525 -109 498 -109T275 -110Q31 -110 26 -108Q0 -101 0 -66Z" />
<glyph unicode="a" glyph-name="a" horiz-adv-x="525" d="M255 394Q218 394 186 383T138 358T109 333T94 321H91Q88 321 86 322T83 325T80 331T79 339T78 349T77 362T75 377Q72 410 72 420Q72 423 72 425T73 429T74 431T77 433T80 435T85 437Q166 475 262 475Q360
475 413 440Q462 406 471 341Q472 332 472 181Q472 155 472 119T473 73Q473 20 462 10T398 0H380Q349 0 337 8T324 48V65Q298 30 257 10T172 -11Q109 -11 70 37T31 145Q31 276 307 289H321V309Q321 337 318 352T300 381T255 394ZM176 146Q176 116 190 97T231 77Q251
77 266 85Q322 110 322 185Q322 189 322 192T322 198L321 201V234L308 232Q176 220 176 146Z" />
<glyph unicode="b" glyph-name="b" horiz-adv-x="561" d="M54 667Q63 694 102 694H127H151Q190 694 199 671Q201 663 201 544L202 422L211 428Q270 468 355 468Q523 468 523 231Q523 -10 321 -10Q286 -10 261 -2T204 33Q197 11 187 6T142 0H126L81 1Q61 7 54 28V667ZM372
230Q372 317 355 349T280 382Q251 382 204 356V107Q235 76 274 76Q301 76 320 84T349 105T364 139T371 180T372 230Z" />
<glyph unicode="c" glyph-name="c" horiz-adv-x="489" d="M188 233Q188 199 190 177T200 131T225 95T271 83H281Q356 83 421 130Q433 138 434 139Q446 141 448 131Q449 128 453 84T457 36Q455 30 432 20T364 -1T273 -11Q37 -11 37 232Q37 456 244 474Q246 474
257 474T276 475Q349 475 400 455Q443 436 448 431L451 425Q451 419 443 377Q442 372 441 366T439 356T438 348T436 340T435 334T433 330T431 327T429 325T426 324Q420 324 406 336Q376 362 350 372T281 382Q254 382 236 373T208 352T194 317T189 278T188 233Z"
/>
<glyph unicode="d" glyph-name="d" horiz-adv-x="561" d="M225 -11Q192 -11 164 -3T104 29T55 102T37 227Q37 321 63 376Q111 469 223 469Q292 469 349 433L359 426V546Q359 564 359 589T358 623Q358 675 369 684T433 694H451Q497 694 505 669Q507 663 507 347T505
25Q500 9 487 5T450 0H432H413Q356 0 356 36V40Q298 -11 225 -11ZM356 359Q326 382 286 382Q239 382 215 358Q189 330 189 256V229V203V195Q189 102 231 86Q251 76 274 76Q318 76 356 114V359Z" />
<glyph unicode="e" glyph-name="e" horiz-adv-x="511" d="M30 231Q30 301 51 351T107 426T181 463T262 474H268Q293 474 312 472T366 459T422 427T462 363T480 260Q480 230 466 222T405 213Q395 213 364 213T311 214H173V211Q173 183 183 148T216 96Q244 76 287
76Q319 76 350 85T399 104T433 125T451 136Q463 138 465 128Q466 125 469 84T473 39Q471 29 423 13T330 -9Q321 -10 286 -10Q213 -10 161 11T81 68T42 144T30 231ZM353 292Q350 324 342 344T320 373T294 384T264 387Q191 387 175 286V282H353V292Z" />
<glyph unicode="f" glyph-name="f" horiz-adv-x="336" d="M67 458H78V502V509Q78 538 79 556T90 604T117 651T169 685T253 704Q254 704 258 704T265 705T275 705T287 704Q364 704 381 687V638V607Q381 591 378 585T366 579Q362 581 351 591T323 610T282 618Q238
618 226 587Q224 581 223 519V458H253Q288 458 298 453Q315 441 315 415Q315 399 312 390T299 377T282 372T259 371H255H226V201Q226 31 224 25Q215 0 174 0H150L106 1Q86 7 79 28L78 199V371H69Q29 371 29 412Q29 425 30 431T40 447T67 458Z" />
<glyph unicode="g" glyph-name="g" horiz-adv-x="550" d="M63 108Q63 142 83 176L76 184Q35 227 35 300Q35 469 243 469Q330 469 385 437L397 443Q451 469 508 469Q515 468 517 466T522 456T528 425Q534 392 534 386Q532 379 523 377Q520 377 509 381T477 390T431
398L425 399Q453 362 453 297Q453 268 445 242T417 189T351 146T242 130Q169 130 119 153Q117 141 117 136Q117 95 155 83Q161 81 252 81Q354 80 362 79Q437 71 475 48T526 -24Q532 -42 532 -65Q532 -116 489 -156T341 -204Q323 -206 274 -206H256Q39 -206 18 -84Q17
-79 17 -68Q17 15 82 42L76 53Q63 79 63 108ZM310 300Q310 359 298 377T238 396Q217 396 204 390T186 368T179 339T178 300Q178 245 189 224T244 203T299 224T310 300ZM414 -66Q414 -55 411 -47T401 -32T387 -21T368 -14T346 -10T322 -7T297 -6T271 -6T246 -6H193Q163
-6 154 -10T140 -30Q135 -45 135 -62Q135 -134 274 -134Q414 -134 414 -66Z" />
<glyph unicode="h" glyph-name="h" horiz-adv-x="561" d="M53 667Q62 694 101 694H126H148Q191 694 198 669Q200 663 200 526V390Q263 469 361 469Q390 469 412 465T456 449T491 413T507 351Q508 342 508 185Q508 31 506 25Q498 0 450 0H432H413Q368 0 359 23Q357
31 357 186Q356 345 355 350Q349 369 336 376Q324 381 301 381H298Q269 381 242 362Q217 342 210 316T202 239Q202 229 202 202T203 157V82Q203 24 195 12T146 0H125L80 1Q60 7 53 28V667Z" />
<glyph unicode="i" glyph-name="i" horiz-adv-x="256" d="M72 574Q55 583 51 591T46 619V636L47 670L48 673Q50 676 52 678T56 684T63 690T73 694H81Q89 694 102 694T129 695H181Q193 687 196 685T203 676T207 661T208 634Q208 603 204 593T181 574H72ZM54 431Q63
458 102 458H127H149Q192 458 199 433Q201 427 201 229T199 25Q190 0 149 0H125L81 1Q61 7 54 28V431Z" />
<glyph unicode="j" glyph-name="j" horiz-adv-x="286" d="M70 634V648Q70 686 96 693Q100 695 151 695H176Q201 695 213 691T230 670Q232 665 232 634V620Q232 582 206 575Q202 573 151 573H126Q101 573 89 577T72 598Q70 603 70 634ZM-41 -84Q-1 -105 28 -105Q67
-105 78 -85Q83 -77 83 -48T84 180Q84 427 86 433Q93 458 136 458H158H180Q201 458 209 456T225 443Q230 436 231 418Q232 397 232 313V183V124V40Q232 -55 228 -87T203 -147Q166 -205 78 -205Q31 -205 -20 -189T-71 -159Q-71 -156 -62 -124T-52 -89Q-49 -84 -41
-84Z" />
<glyph unicode="k" glyph-name="k" horiz-adv-x="531" d="M496 23Q496 9 487 5T457 0H427H398Q367 0 354 11Q352 12 288 99L226 183L191 150V90V54Q191 30 186 18T165 2Q160 0 124 0L90 1Q70 7 63 28V667Q72 694 108 694H128H146Q183 694 192 671Q194 663 194
496L195 325L254 383Q266 394 281 409T301 429T316 441T329 450T341 455T357 458T376 458H409H436Q461 458 470 454T480 437Q480 430 477 427T445 395Q417 368 396 347L319 271Q319 270 358 217T442 103T494 32Q496 30 496 23Z" />
<glyph unicode="l" glyph-name="l" horiz-adv-x="256" d="M54 667Q63 694 102 694H127H149Q192 694 199 669Q201 663 201 347T199 25Q190 0 149 0H125L81 1Q61 7 54 28V667Z" />
<glyph unicode="m" glyph-name="m" horiz-adv-x="867" d="M197 386Q256 468 366 468Q404 468 430 461T471 438T491 413T503 385Q563 469 666 469Q731 469 769 446T814 350Q815 343 815 185Q815 31 813 25Q808 9 796 5T758 0H737L692 1Q672 7 665 28L664 186V206V290Q664
349 655 365T610 381Q581 381 560 370T529 341T515 311T510 291Q509 286 509 157V82Q509 24 501 12T452 0H431L386 1Q366 7 359 28L358 186V206V290Q358 349 349 365T304 381Q275 381 254 370T223 341T209 311T204 291Q203 286 203 157V82Q203 24 195 12T146 0H125L80
1Q60 7 53 28V437Q58 453 80 464H122H142Q167 464 178 460T195 439Q197 434 197 409V386Z" />
<glyph unicode="n" glyph-name="n" horiz-adv-x="561" d="M197 386Q264 468 350 468Q375 468 390 467T429 460T466 443T492 408T507 351Q508 342 508 185Q508 31 506 25Q498 0 450 0H432H413Q368 0 359 23Q357 31 357 186Q356 345 355 350Q349 369 336 376Q324
381 301 381H298Q269 381 242 362Q217 342 210 316T202 239Q202 229 202 202T203 157V82Q203 24 195 12T146 0H125L80 1Q60 7 53 28V437Q58 453 80 464H122H142Q167 464 178 460T195 439Q197 434 197 409V386Z" />
<glyph unicode="o" glyph-name="o" horiz-adv-x="550" d="M274 -11Q32 -11 32 225Q32 346 85 406T249 474H266H271Q302 474 325 471T385 458T451 419T498 346Q518 300 518 225Q518 -11 274 -11ZM367 233Q367 322 350 354T270 387Q240 387 222 377T195 344T184
298T182 233Q182 151 198 117T275 83H282Q318 83 339 104Q355 119 361 146T367 233Z" />
<glyph unicode="p" glyph-name="p" horiz-adv-x="561" d="M125 458H139Q174 458 185 452T202 420L211 426Q245 448 288 458T354 469Q356 469 361 469T369 468Q443 468 481 412Q523 355 523 223Q523 164 509 120T473 51T423 12T371 -7T323 -11Q260 -11 204 33V-65Q204
-80 204 -102T205 -131Q205 -162 200 -175T178 -192Q173 -194 126 -194L81 -193Q61 -187 54 -166V431Q58 447 81 458H125ZM372 230Q372 376 282 376Q247 376 204 352V107L208 103Q213 99 218 95T232 87T251 79T274 76Q323 76 349 116Q372 153 372 230Z" />
<glyph unicode="q" glyph-name="q" horiz-adv-x="561" d="M226 -11Q37 -11 37 236Q37 294 51 338T86 407T135 445T186 464T233 469H235Q300 469 349 422L359 413V425Q359 452 376 464Q384 469 433 469H455Q498 469 505 444Q507 438 507 137Q507 -163 505 -169Q500
-185 487 -189T450 -194H432H413Q367 -194 358 -171Q356 -163 356 -63V40L348 33Q296 -11 231 -11H226ZM281 375Q188 375 188 228Q188 77 275 77Q322 77 359 120V328Q338 357 324 366T281 375Z" />
<glyph unicode="r" glyph-name="r" horiz-adv-x="372" d="M54 437Q58 453 81 464H122H147Q186 464 194 439Q196 434 196 405V377L203 387Q245 456 324 468Q325 468 331 468T340 469Q347 469 356 462V360Q350 355 346 354T339 353T326 353T300 347Q260 337 234
311T202 252Q201 247 201 138Q201 122 201 98T202 66Q202 33 197 20T175 2Q170 0 125 0L81 1Q61 7 54 28V437Z" />
<glyph unicode="s" glyph-name="s" horiz-adv-x="422" d="M37 328Q37 392 75 433T203 474Q254 474 265 473Q319 465 370 442Q378 439 380 432Q380 426 372 384Q364 336 359 333Q358 331 355 331Q348 331 337 341Q282 388 216 388H208Q190 388 180 387T161 377T151
351Q151 333 164 323T224 306L267 297Q314 285 355 246T396 144Q396 17 282 -5Q260 -10 218 -10Q170 -10 124 2T55 26T30 44Q30 48 39 99T49 153Q52 159 60 159Q66 159 70 153Q100 120 133 101T218 82Q231 82 238 83T258 87T277 101T283 126Q283 149 260 160T200
176T153 186Q109 201 73 236T37 328Z" />
<glyph unicode="t" glyph-name="t" horiz-adv-x="404" d="M225 267Q225 202 226 169T232 115T244 88T265 82Q295 84 318 100T345 116Q352 116 354 110T364 77Q373 46 373 43Q373 28 312 9T190 -10Q160 -10 139 1T107 29T89 77T82 136T80 210V258V371H66H59Q39
371 27 386Q20 394 20 417Q21 432 23 437Q35 458 60 458H65H83V510L84 562Q93 589 131 589H154H174Q216 589 223 564Q225 558 225 508V458H274Q330 458 338 453Q355 441 355 415Q355 388 338 376Q330 371 274 371H225V267Z" />
<glyph unicode="u" glyph-name="u" horiz-adv-x="561" d="M53 431Q62 459 100 459Q105 459 114 459T127 458H152Q192 458 201 435Q203 427 203 262Q204 86 208 77Q209 74 216 71Q227 66 258 66H264Q334 66 354 140L356 150L357 290Q357 427 359 435Q365 449 377
453T412 458H432H450Q498 458 506 433Q508 427 508 229T506 25Q498 0 451 0H434H418Q386 0 374 7T360 43V58L352 49Q298 -11 199 -11Q135 -9 101 11T56 80Q52 100 52 273L53 431Z" />
<glyph unicode="v" glyph-name="v" horiz-adv-x="500" d="M26 429T26 435T32 448T44 456Q48 458 85 458H99Q145 458 161 431Q162 429 207 285L251 145L294 284Q333 410 341 430Q351 451 374 456Q379 458 420 458H430Q450 458 457 456T471 443Q473 437 473 435Q473
426 443 325T381 126L350 28Q339 7 316 2Q312 0 250 0Q187 0 183 2Q160 7 149 28L136 68Q124 109 106 166T70 283T39 385Z" />
<glyph unicode="w" glyph-name="w" horiz-adv-x="744" d="M699 458Q717 447 719 432Q719 426 666 230T610 27Q602 10 588 5T548 0H512H482Q431 0 420 17T384 135Q356 241 352 298V308L351 295Q348 251 322 145T290 28Q279 0 233 0H212H191Q146 0 133 27Q130 33
77 229T24 430Q24 449 44 457Q47 458 79 458Q122 458 126 456Q154 450 163 419L233 153Q241 187 272 304T307 431Q318 458 368 458Q394 458 398 456Q421 451 430 431Q434 423 509 147L547 286Q582 416 588 429Q600 454 624 457Q632 458 647 458H663H699Z" />
<glyph unicode="x" glyph-name="x" horiz-adv-x="500" d="M92 0Q87 0 77 0T62 -1Q24 -1 24 22Q24 29 33 41T106 136Q185 237 184 238Q184 239 147 284T73 376T33 427Q31 430 31 436Q31 451 45 457Q48 458 96 458H122Q152 458 163 450T208 394L247 345L282 394Q288
403 297 416T309 434T319 444T328 452T338 455T352 458T372 458H393H440Q457 449 457 435Q457 428 450 419T379 328Q308 239 308 237L389 137Q409 112 436 79Q475 31 475 23Q475 -1 436 -1Q432 -1 422 -1T407 0Q360 0 352 3Q343 6 336 16T291 83L247 151L245 148Q243
145 239 139T229 124T218 106T204 84Q167 24 160 15T141 1L92 0Z" />
<glyph unicode="y" glyph-name="y" horiz-adv-x="500" d="M454 458Q473 446 473 430Q473 426 394 184L311 -68Q291 -119 245 -162T123 -205Q51 -205 46 -190Q44 -187 40 -142T36 -92Q36 -90 36 -88L37 -87Q41 -80 46 -80Q48 -80 73 -92T126 -105Q146 -105 161
-98T185 -76T197 -53T206 -28L215 0L122 212Q29 427 29 435Q29 448 46 457Q49 458 91 458Q93 458 106 458T125 457T140 454T157 446T170 431Q183 410 224 305T266 158Q266 152 266 151Q267 151 268 163Q271 206 302 310T342 432Q354 458 398 458H418H454Z" />
<glyph unicode="z" glyph-name="z" horiz-adv-x="476" d="M268 376Q250 376 180 375T92 374Q69 374 63 380Q46 390 46 419Q46 428 49 437Q57 451 73 457Q76 458 242 458T413 456Q420 455 427 448Q439 438 439 413Q439 392 433 385Q432 383 318 236T204 88Q235
88 306 89T395 90H399Q408 90 414 89T427 84T438 70T442 45Q442 9 416 2Q411 0 236 0H136Q73 0 62 1T41 12Q31 23 31 47Q31 68 36 77Q37 78 51 97T96 155T153 228L268 376Z" />
<glyph unicode="~" glyph-name="asciitilde" horiz-adv-x="550" d="M92 215Q92 259 122 301T204 344Q238 344 264 329T310 300T343 285Q356 285 361 295T369 322T377 344H450Q457 334 457 330Q457 281 427 240T344 198Q312 198 285 213T239 242T206 257Q188 257
182 230T172 199L137 198H120Q102 198 97 200T92 215Z" />
<glyph unicode="&#xa0;" glyph-name="uni00A0" horiz-adv-x="250" />
<glyph unicode="&#x131;" glyph-name="dotlessi" horiz-adv-x="256" d="M54 431Q63 458 102 458H127H149Q192 458 199 433Q201 427 201 229T199 25Q190 0 149 0H125L81 1Q61 7 54 28V431Z" />
<glyph unicode="&#x237;" glyph-name="uni0237" horiz-adv-x="286" d="M-38 -84Q-36 -84 -14 -95T33 -106H38Q70 -103 78 -86Q83 -78 83 -49T84 180Q84 427 86 433Q93 458 136 458H158H180Q201 458 209 456T225 443Q230 436 231 418Q232 397 232 313V183V124V40Q232
-55 228 -87T203 -147Q166 -205 78 -205Q31 -205 -20 -189T-71 -159Q-71 -156 -59 -123Q-50 -96 -47 -91T-38 -84Z" />
<glyph unicode="&#x300;" glyph-name="gravecomb" horiz-adv-x="0" d="M-458 682Q-458 690 -452 692T-426 694H-381H-314L-312 691Q-311 691 -305 682T-287 655T-263 622L-218 555V549Q-218 544 -224 538L-259 537Q-295 537 -296 538Q-298 539 -376 606T-456 676Q-458
680 -458 682Z" />
<glyph unicode="&#x301;" glyph-name="acutecomb" horiz-adv-x="0" d="M-290 537H-310Q-334 537 -334 549Q-334 553 -311 588T-264 656L-241 690Q-240 690 -239 691T-236 693Q-235 694 -167 694H-100Q-93 684 -93 681T-94 677Q-95 675 -173 607T-255 538Q-256
537 -290 537Z" />
<glyph unicode="&#x302;" glyph-name="uni0302" horiz-adv-x="0" d="M-442 550Q-442 554 -415 589T-360 658T-331 692Q-329 694 -275 694Q-222 694 -220 693Q-219 692 -169 629T-112 557Q-109 552 -109 549Q-109 545 -116 538L-151 537Q-187 537 -188 538Q-189
538 -232 575L-275 611Q-276 611 -319 575Q-362 538 -363 538Q-364 537 -400 537L-435 538Q-442 545 -442 550Z" />
<glyph unicode="&#x303;" glyph-name="tildecomb" horiz-adv-x="0" d="M-458 565Q-458 609 -428 651T-346 694Q-312 694 -286 679T-240 650T-207 635Q-194 635 -189 645T-181 672T-173 694H-100Q-93 684 -93 680Q-93 631 -123 590T-206 548Q-238 548 -265 563T-311
592T-344 607Q-362 607 -368 580T-378 549L-413 548H-430Q-448 548 -453 550T-458 565Z" />
<glyph unicode="&#x304;" glyph-name="uni0304" horiz-adv-x="0" d="M-84 660Q-81 656 -77 653V567L-81 564L-84 561L-274 560H-383Q-469 560 -471 565L-472 566Q-474 569 -474 611L-473 653Q-469 659 -466 659Q-465 660 -274 660H-84Z" />
<glyph unicode="&#x306;" glyph-name="uni0306" horiz-adv-x="0" d="M-123 694Q-80 694 -80 657Q-80 626 -99 601T-161 563Q-199 552 -275 552Q-352 552 -389 563Q-470 586 -470 655Q-470 667 -468 673Q-457 694 -435 694H-431Q-408 694 -396 685Q-387 676 -387
671Q-384 661 -275 661Q-167 661 -164 671Q-164 674 -163 677T-151 687T-123 694Z" />
<glyph unicode="&#x307;" glyph-name="uni0307" horiz-adv-x="0" d="M-329 596Q-346 602 -351 611T-356 638V646Q-356 653 -356 654T-356 661T-355 668T-353 673T-351 679T-347 684T-341 689T-332 693T-274 695H-221Q-202 683 -198 676T-194 645Q-194 632 -195
625T-202 610T-221 596H-329Z" />
<glyph unicode="&#x308;" glyph-name="uni0308" horiz-adv-x="0" d="M-331 695Q-312 683 -308 676T-304 645Q-304 632 -304 626T-311 610T-331 596L-380 595H-408Q-448 595 -457 617Q-459 621 -459 645T-457 673Q-448 696 -409 696Q-405 696 -396 696T-380 695H-331ZM-247
644Q-247 658 -246 665T-239 680T-221 694Q-217 695 -169 695H-143Q-102 695 -93 672Q-91 664 -91 645V635Q-91 613 -106 602Q-113 597 -121 596T-171 595L-219 596Q-232 600 -238 608T-246 622T-247 644Z" />
<glyph unicode="&#x30a;" glyph-name="uni030A" horiz-adv-x="0" d="M-365 616Q-365 658 -331 676T-256 694Q-253 694 -247 694T-236 693Q-166 693 -139 666Q-119 644 -119 616T-139 565Q-166 538 -237 538H-242Q-365 538 -365 616ZM-181 616Q-181 641 -195 647T-242
654Q-258 654 -266 654T-284 650T-298 638T-303 616Q-303 592 -289 585T-242 577Q-209 577 -195 584T-181 616Z" />
<glyph unicode="&#x30b;" glyph-name="uni030B" horiz-adv-x="0" d="M-426 686Q-424 694 -394 694H-350H-283Q-277 686 -277 682Q-277 673 -317 608T-361 538L-396 537H-420Q-432 537 -436 539T-440 548Q-440 560 -434 616Q-432 633 -430 650T-427 677L-426 686ZM-243
686Q-241 694 -211 694H-167H-100Q-94 686 -94 682Q-94 673 -134 608T-178 538L-213 537H-237Q-249 537 -253 539T-257 548Q-257 560 -251 616Q-249 633 -247 650T-244 677L-243 686Z" />
<glyph unicode="&#x30c;" glyph-name="uni030C" horiz-adv-x="0" d="M-442 645Q-442 657 -418 657H-398Q-393 657 -388 657T-379 657T-371 656T-365 656H-363L-319 620L-276 583Q-275 583 -232 619Q-189 656 -188 656Q-187 657 -151 657H-116Q-109 649 -109 645Q-109
642 -112 637Q-118 629 -168 566T-220 501Q-222 500 -275 500Q-329 500 -331 501Q-442 634 -442 645Z" />
<glyph unicode="&#x393;" glyph-name="Gamma" horiz-adv-x="581" d="M92 664Q98 683 118 690Q121 691 312 691T508 689Q534 682 534 644V632V618Q534 582 508 573L502 572Q496 572 489 572Q486 572 463 572T416 573Q333 573 291 575H253V303Q253 31 251 25Q242
0 199 0H170L119 1Q99 7 92 28V664Z" />
<glyph unicode="&#x394;" glyph-name="increment" horiz-adv-x="917" d="M381 692Q386 694 458 694H498Q529 694 546 688T575 663Q576 658 715 349T856 27Q856 8 838 1H826Q815 1 795 1T747 1T686 1T616 0T539 0T458 0T378 0T300 0T230 0T169 1T122 1T90 1H78Q60
8 60 27Q62 38 201 349T341 663Q357 688 381 692ZM627 148Q626 149 581 250T492 453L447 554L268 148Q268 147 448 147Q627 147 627 148Z" />
<glyph unicode="&#x398;" glyph-name="Theta" horiz-adv-x="856" d="M62 340Q62 716 425 716Q511 716 576 696T681 642T747 559T783 458T793 341Q793 264 777 203T721 89T608 7T428 -22Q62 -22 62 340ZM638 333Q638 365 637 387T632 441T621 495T600 542T567 583T518
611T451 628Q443 629 427 629Q402 629 378 624T327 608T276 571T240 511Q217 453 217 345Q217 254 231 204T279 120Q333 69 428 69Q522 69 576 120Q638 183 638 333ZM279 349V373Q279 413 305 420Q309 422 427 422H487Q550 422 563 414T576 369V349Q576 345 576
337T577 324Q577 284 550 277Q545 275 428 275H369Q306 275 293 283T279 329V349Z" />
<glyph unicode="&#x39b;" glyph-name="Lambda" horiz-adv-x="672" d="M106 0H83Q41 0 41 28Q41 39 133 349T229 667Q242 694 296 694H335H375Q403 694 418 689T442 667Q445 660 537 350T630 28Q630 11 619 6T584 0H555H526Q478 0 465 27Q462 32 431 136T366 372T325
555V546Q320 503 287 376T222 141T186 27Q184 22 177 15T165 6Q154 0 106 0Z" />
<glyph unicode="&#x39e;" glyph-name="Xi" horiz-adv-x="733" d="M627 553Q609 553 512 554T366 555Q316 555 220 554T105 553Q96 553 90 553T82 554T78 554Q61 560 57 571T52 605V623L53 661Q59 680 79 687Q82 688 366 688Q649 688 654 686Q680 679 680 639V621V603Q680
563 654 554Q653 554 651 554T642 554T627 553ZM149 423Q152 424 366 424Q579 424 584 422Q610 415 610 376V358V340Q610 300 584 293Q579 291 366 291H232Q162 291 150 293T129 306Q122 315 122 360L123 397Q129 416 149 423ZM108 135Q143 135 226 134T363 133Q407
133 507 134T632 135H645Q675 135 684 110Q686 104 686 68V49Q686 9 660 2Q655 0 364 0L74 1Q57 7 49 21L47 28L46 65V83Q46 126 72 133Q80 135 108 135Z" />
<glyph unicode="&#x3a0;" glyph-name="Pi" horiz-adv-x="794" d="M92 664Q98 683 118 690Q121 691 396 691T676 689Q695 684 700 666Q702 660 702 345Q702 31 700 25Q696 9 684 5T646 0H621H596Q571 0 559 4T542 25Q540 31 540 307V582H253V307Q253 31 251 25Q242
0 199 0H170L119 1Q99 7 92 28V664Z" />
<glyph unicode="&#x3a3;" glyph-name="Sigma" horiz-adv-x="794" d="M322 124Q326 124 457 125T672 127H689Q721 127 730 102Q732 96 732 64V48Q732 9 706 2Q701 0 394 0L89 1Q76 5 69 13T62 29V36Q62 37 62 38Q62 47 70 58T126 126Q161 167 185 196Q302 335 302
336L187 463Q74 584 68 594Q61 603 61 639L62 667Q68 686 88 693Q91 694 396 694T706 692Q732 686 732 647V635V621Q732 585 706 576Q705 576 702 576T691 576T670 575L302 578Q302 577 394 475T490 371Q498 362 498 347Q498 336 488 323T408 226L322 124Z" />
<glyph unicode="&#x3a5;" glyph-name="Upsilon" horiz-adv-x="856" d="M62 560Q62 607 94 644T169 698T253 715Q273 715 286 713T322 704T363 677T398 625Q413 597 423 556L428 540Q429 541 436 566T454 620T494 677T561 713Q570 715 593 715Q682 715 737 668T793
560Q793 549 793 545T786 533T767 520H670Q646 532 644 551T632 579Q618 594 591 594Q539 594 524 530T509 321V216Q509 31 507 25Q498 0 455 0H426L375 1Q355 7 348 28L347 232Q346 344 346 441Q346 442 343 468T335 521T312 571T266 594Q252 594 247 593Q228
586 220 576T212 557T209 539T191 523L185 520H88Q75 527 69 534T63 545T62 560Z" />
<glyph unicode="&#x3a6;" glyph-name="Phi" horiz-adv-x="794" d="M62 292T62 347T80 445T124 511T183 552T243 574T292 584L315 587H319V627L320 667Q329 694 370 694H397H422Q466 694 473 669Q475 663 475 625V587H478Q479 587 500 584T548 575T608 553T668
513T713 446T732 347Q732 253 674 187Q655 167 628 152T576 128T530 116T493 109L478 107H475V69V50Q475 9 449 2Q444 0 395 0L347 1Q327 7 320 28L319 67V107H315L292 110Q269 114 243 119T184 142T124 182T80 249ZM319 197T319 347T318 497Q316 497 307 494T284
485T262 471Q220 438 220 347Q220 285 239 249Q248 234 261 223T286 208T308 200L317 197Q319 197 319 347ZM572 347V357Q572 387 569 407T548 452T496 491Q495 491 494 491T487 493T475 497V197Q518 210 541 232T571 303Q572 312 572 347Z" />
<glyph unicode="&#x3a8;" glyph-name="Psi" horiz-adv-x="856" d="M61 585Q62 594 62 597T64 606T73 616T89 626H138Q196 626 208 620Q243 602 253 546T261 431T271 309T325 219Q342 205 349 205Q350 205 350 436L351 667Q360 694 401 694H428H454Q495 694 504
671Q506 663 506 436L507 205Q542 222 561 251T586 318T593 392T595 472T602 546Q614 614 661 625Q665 626 708 626H730Q766 626 780 618T794 582Q794 548 768 540Q755 538 754 501T750 410T736 298T680 191T560 120Q550 116 512 109H506V70V50Q506 9 480 2Q475
0 426 0L378 1Q358 7 351 28L350 68V109L335 111Q298 117 267 129T214 156T175 191T146 229T127 272T115 314T109 357T106 395T105 429Q104 537 87 540Q66 548 63 565Q61 570 61 585Z" />
<glyph unicode="&#x3a9;" glyph-name="Omega" horiz-adv-x="794" d="M241 122Q225 154 191 199T131 278T83 363T61 464Q61 497 68 527T94 591T145 650T228 693T349 715Q354 715 370 715T396 716Q539 716 622 668Q658 647 682 617T715 556T728 505T732 465Q732
415 711 365T663 280T602 200T552 122H632Q649 122 669 122T693 123H697Q736 123 742 98Q744 92 744 62V47Q744 9 718 2Q713 0 591 0L471 1Q454 7 446 21Q444 27 444 45Q444 96 463 154T506 257T549 360T569 469Q569 504 563 530T538 580T485 616T396 629Q313 629
268 594T223 468Q223 419 243 361T286 258T330 152T350 41Q350 14 335 7T276 -1Q267 -1 241 -1T197 0L77 1Q57 7 50 28L49 59V74Q49 114 75 121Q81 123 100 123Q104 123 124 123T161 122H241Z" />
<glyph unicode="&#x2013;" glyph-name="endash" horiz-adv-x="550" d="M0 284Q0 318 26 325Q30 327 274 327Q469 327 497 327T532 322Q549 310 549 283Q549 257 532 245Q525 241 498 241T275 240Q31 240 26 242Q0 249 0 284Z" />
<glyph unicode="&#x2014;" glyph-name="emdash" horiz-adv-x="1100" d="M0 284Q0 318 26 325Q30 327 549 327T1073 325Q1099 318 1099 284Q1099 249 1073 242Q1068 240 549 240Q31 240 26 242Q0 249 0 284Z" />
<glyph unicode="&#x2018;" glyph-name="quoteleft" horiz-adv-x="306" d="M87 443L81 449V581L119 636Q125 644 131 653T141 667T148 677T154 685T158 689T163 692T167 693T173 694H190H201Q226 694 226 683Q226 678 208 635T189 590Q189 588 204 588H219Q222
584 226 581V449L219 443H87Z" />
<glyph unicode="&#x2019;" glyph-name="quoteright" horiz-adv-x="306" d="M81 687Q85 693 88 693Q89 694 154 694H219Q222 690 226 687V556L187 501Q182 494 177 486T169 474T163 465T157 457T153 451T149 447T145 445T141 443T137 443T132 442H116H105Q80 442
80 453Q80 458 98 501T117 546Q117 548 102 548L87 549L81 555V687Z" />
<glyph unicode="&#x201c;" glyph-name="quotedblleft" horiz-adv-x="558" d="M144 443L138 449V581L176 636Q182 644 188 653T198 667T205 677T211 685T215 689T220 692T224 693T230 694H247H258Q283 694 283 683Q283 678 265 635T246 590Q246 588 261 588H276Q279
584 283 581V449L276 443H144ZM381 443L375 449V581L413 636Q419 644 425 653T435 667T442 677T448 685T452 689T457 692T461 693T467 694H484H495Q520 694 520 683Q520 678 502 635T483 590Q483 588 498 588H513Q516 584 520 581V449L513 443H381Z" />
<glyph unicode="&#x201d;" glyph-name="quotedblright" horiz-adv-x="558" d="M38 687Q42 693 45 693Q46 694 111 694H176Q179 690 183 687V556L144 501Q139 494 134 486T126 474T120 465T114 457T110 451T106 447T102 445T98 443T94 443T89 442H73H62Q37 442
37 453Q37 458 55 501T74 546Q74 548 59 548L44 549L38 555V687ZM275 687Q279 693 282 693Q283 694 348 694H413Q416 690 420 687V556L381 501Q376 494 371 486T363 474T357 465T351 457T347 451T343 447T339 445T335 443T331 443T326 442H310H299Q274 442 274
453Q274 458 292 501T311 546Q311 548 296 548L281 549L275 555V687Z" />
<glyph unicode="&#xeffd;" glyph-name="uniEFFD" horiz-adv-x="500" d="M0 0V100H100V0H0ZM400 0V100H500V0H400Z" />
<glyph unicode="&#xeffe;" glyph-name="uniEFFE" horiz-adv-x="300" d="M0 0V100H100V0H0ZM200 0V100H300V0H200Z" />
<glyph unicode="&#xefff;" glyph-name="uniEFFF" horiz-adv-x="100" d="M0 0V100H100V0H0Z" />
</font>
</defs>
</svg>
